.:: DownTown NetWork ::.| The World You Need Music Games Soft Movies & More
Welcome


.:: DownTown NetWork ::.| The World You Need | Music Games Soft Movies & More
 
HomeProtalCalendarGalleryFAQSearchMemberlistUsergroupsRegisterLog in

Share | 
 

 SALT (2010)

Go down 
AuthorMessage
Admin
Admin
avatar

Posts : 146
Points : 311
Reputation : 0
Join date : 2009-01-20

PostSubject: SALT (2010)   Mon Aug 02, 2010 9:52 pm



General
Complete name : Salt (2010) Cam XviD - Hogs.avi
Format : AVI
Format/Info : Audio Video Interleave
File size : 967 MiB
Duration : 1h 32mn
Overall bit rate : 1 463 Kbps
Writing library : VirtualDub build 30091/release

Video
ID : 0
Format : MPEG-4 Visual
Format profile : AdvancedSimple@L5
Format settings, BVOP : Yes
Format settings, QPel : No
Format settings, GMC : No warppoints
Format settings, Matrix : Default (H.263)
Muxing mode : Packed bitstream
Codec ID : XVID
Codec ID/Hint : XviD
Duration : 1h 32mn
Bit rate : 1 195 Kbps
Width : 688 pixels
Height : 272 pixels
Display aspect ratio : 2.529
Frame rate : 30.000 fps
Resolution : 24 bits
Colorimetry : 4:2:0
Scan type : Progressive
Bits/(Pixel*Frame) : 0.213
Stream size : 790 MiB (82%)
Writing library : XviD 1.2.1 (UTC 2008-12-04)

Audio
ID : 1
Format : MPEG Audio
Format version : Version 1
Format profile : Layer 3
Codec ID : 55
Codec ID/Hint : MP3
Duration : 1h 32mn
Bit rate mode : Constant
Bit rate : 256 Kbps
Channel(s) : 2 channels
Sampling rate : 48.0 KHz
Resolution : 16 bits
Stream size : 169 MiB (17%)
Alignment : Split accross interleaves
Interleave, duration : 33 ms (1.00 video frame)
Interleave, preload duration : 500 ms

As a CIA officer, Evelyn Salt swore an oath to duty, honor and country. Her loyalty will be tested when a defector accuses

her of being a Russian spy...


IMDB:
[You must be registered and logged in to see this link.]

Download::
PART 1: [You must be registered and logged in to see this link.]
PART 2: [You must be registered and logged in to see this link.]
PART 3: [You must be registered and logged in to see this link.]
PART 4: [You must be registered and logged in to see this link.]
PART 5: [You must be registered and logged in to see this link.]
PART 6: [You must be registered and logged in to see this link.]
PART 7: [You must be registered and logged in to see this link.]
PART 8: [You must be registered and logged in to see this link.]
PART 9 :http://hotfile.com/dl/57711292/cb8ade0/Salt.2010-CAMRip_XviD-NOVA.part09.RAR.html
PART 10: [You must be registered and logged in to see this link.]
PART 11: [You must be registered and logged in to see this link.]
PART 12: [You must be registered and logged in to see this link.]
PART 13: [You must be registered and logged in to see this link.]
Back to top Go down
View user profile http://TheDownTown.yoo7.com
 
SALT (2010)
Back to top 
Page 1 of 1

Permissions in this forum:You cannot reply to topics in this forum
.:: DownTown NetWork ::.| The World You Need Music Games Soft Movies & More :: .:: World Cinema ::.-
Jump to: